* Dettagli Torrent   globale  | Commenti (0) 


- Sucker Punch (2011).720p.H264.italian.English.Ac3-5.1.sub.Multisub.MIRCrew -


Download via torrent:
Categoria bittorrent BDRip
Descrizione
Sucker Punch (2011).720p.H264.italian.English.Ac3-5.1.sub.Multisub.MIRCrew



NO FOUND ONLY ORIGINAL RELEASE



My release is always in double track audio italian and Original audio
for select it use VLC or dvd player home
not use wmp

Sucker Punch

(2011)

Quality MIRCrew on HD 720p da  1,7 gb








Paese di produzione Stati Uniti d'America
Anno 2011
Durata 110 min
128 min (Director's Cut)
Rapporto 2,35 : 1
Genere azione, fantastico
Regia Zack Snyder
Soggetto Zack Snyder
Sceneggiatura Zack Snyder, Steve Shibuya



   Emily Browning: Babydoll
   Abbie Cornish: Sweet Pea
   Jena Malone: Rocket
   Vanessa Hudgens: Blondie
   Jamie Chung: Amber
   Carla Gugino: Madam Vera Gorski
   Scott Glenn: Il Saggio
   Oscar Isaac: Blue Jones
   Jon Hamm: Il Giocatore/Dottore



Negli anni cinquanta, la giovane Babydoll, accusata ingiustamente di aver ucciso la sorella in un attacco di pazzia, viene portata dal patrigno nell'istituto di igiene mentale Lennox House for the Mentally Insane. L'uomo intende farla lobotomizzare per impedirle di rivelare alla polizia che in realtà l'omicidio sia stato commesso intenzionalmente da lui.........................



A young girl is institutionalized by her abusive stepfather, retreating to an alternative reality as a coping strategy, envisioning a plan to help her escape.










[spoiler]
General
Unique ID                                : 233620493324153094823695442708028358632 (0xAFC1AB9D784D78369CE514AC4FE67FE
Complete name                            : Sucker Punch (2011).720p.ita.eng.multisub - MIRCrew\Sucker Punch (2011).720p.ita.eng.multisub - MIRCrew.mkv
Format                                   : Matroska
Format version                           : Version 2
File size                                : 1.67 GiB
Duration                                 : 1h 49mn
Overall bit rate                         : 2 184 Kbps
Movie name                               : MIRCrew
Encoded date                             : UTC 2018-05-14 22:16:56
Writing application                      : mkvmerge v5.4.0 ('Piper') built on Mar 10 2012 13:34:39
Writing library                          : Lavf54.63.100

Video
ID                                       : 1
Format                                   : AVC
Format/Info                              : Advanced Video Codec
Format profile                           : [email protected]
Format settings, CABAC                   : Yes
Format settings, ReFrames                : 2 frames
Codec ID                                 : V_MPEG4/ISO/AVC
Duration                                 : 1h 49mn
Bit rate                                 : 1 300 Kbps
Width                                    : 1 280 pixels
Height                                   : 528 pixels
Display aspect ratio                     : 2.40:1
Frame rate mode                          : Variable
Frame rate                               : 23.976 fps
Color space                              : YUV
Chroma subsampling                       : 4:2:0
Bit depth                                : 8 bits
Scan type                                : Progressive
Bits/(Pixel*Frame)                       : 0.080
Stream size                              : 977 MiB (57%)
Writing library                          : x264 core 130 r2273
Encoding settings                        : cabac=1 / ref=2 / deblock=1:0:0 / analyse=0x1:0x131 / me=hex / subme=7 / psy=1 / psy_rd=1.00:0.00 / mixed_ref=0 / me_range=16 / chroma_me=1 / trellis=1 / 8x8dct=0 / cqm=0 / deadzone=21,11 / fast_pskip=1 / chroma_qp_offset=-2 / threads=3 / lookahead_threads=1 / sliced_threads=0 / nr=0 / decimate=1 / interlaced=0 / bluray_compat=0 / constrained_intra=0 / bframes=3 / b_pyramid=0 / b_adapt=1 / b_bias=0 / direct=3 / weightb=1 / open_gop=0 / weightp=2 / keyint=230 / keyint_min=23 / scenecut=40 / intra_refresh=0 / rc_lookahead=40 / rc=abr / mbtree=1 / bitrate=1300 / ratetol=1.0 / qcomp=0.60 / qpmin=10 / qpmax=69 / qpstep=4 / vbv_maxrate=24000 / vbv_bufsize=24000 / nal_hrd=none / ip_ratio=1.40 / aq=1:1.00
Language                                 : Italian
Default                                  : Yes
Forced                                   : No

Audio #1
ID                                       : 2
Format                                   : AC-3
Format/Info                              : Audio Coding 3
Mode extension                           : CM (complete main)
Codec ID                                 : A_AC3
Duration                                 : 1h 49mn
Bit rate mode                            : Constant
Bit rate                                 : 448 Kbps
Channel(s)                               : 6 channels
Channel positions                        : Front: L C R, Side: L R, LFE
Sampling rate                            : 48.0 KHz
Bit depth                                : 16 bits
Compression mode                         : Lossy
Delay relative to video                  : -42ms
Stream size                              : 352 MiB (21%)
Title                                    : ita Ac3 5.1
Language                                 : Italian
Default                                  : Yes
Forced                                   : No

Audio #2
ID                                       : 3
Format                                   : AC-3
Format/Info                              : Audio Coding 3
Mode extension                           : CM (complete main)
Codec ID                                 : A_AC3
Duration                                 : 1h 49mn
Bit rate mode                            : Constant
Bit rate                                 : 448 Kbps
Channel(s)                               : 6 channels
Channel positions                        : Front: L C R, Side: L R, LFE
Sampling rate                            : 48.0 KHz
Bit depth                                : 16 bits
Compression mode                         : Lossy
Delay relative to video                  : -42ms
Stream size                              : 352 MiB (21%)
Title                                    : ieng Ac3 5.1
Language                                 : English
Default                                  : No
Forced                                   : No



[/spoiler]



Info: Per scaricare devi usare un client come uTorrent o Transmission
AnnounceURL
udp://tracker.coppersurfer.tk:6969/announce
Hash 31545b06b81116d06514041ad4afb157a0718ea3
Peers seeds: 103 , leech: 20
Size 1.67 GB
Completato 1262x
Aggiunto 16.05.18 - 19:05:29
Uploader   robbyrs
Votazione (Voti: 1)


Condividi questo bittorrent:


html/blog:


bbcode/forum:




Aggiungi Commento