* Dettagli Torrent   globale  | Commenti (0) 


- Tremors A Cold Day In Hell (2018).H264.italian.english.Ac3-5.1.sub.ita.MIRCrew -


Download via torrent:
Categoria bittorrent BDRip
Descrizione
Tremors A Cold Day In Hell 2018.H264.italian.english.Ac3-5.1.sub.ita.MIRCrew



NO FOUND ONLY ORIGINAL RELEASE




My release is always in double track audio italian and Original audio
for select it use VLC or dvd player home
not use wmp

Tremors A Cold Day In Hell

2018








Titolo Originale: Tremors: A Cold Day in Hell
Paese: USA
Anno: 2018
Genere: Azione
Durata: 98'
Regia: Don Michael Paul



Michael Gross
Jamie Kennedy
Tanya van Graan



Burt Gummer e il figlio Travis Welker si dirigono in Canada per indagare su una serie di micidiali attacchi messi a segno da vermi giganti. Giunti in un remoto centro di ricerca nella tundra artica...................



The sequel finds Burt Gummer and his son Travis at a remote research station, where they must go up against Graboids that have been converted into living weapon  










[spoiler]
General
Unique ID                                : 113157377366614778473628660710015727886 (0x55215172451285AA0714630AB0BF790E)
Complete name                            : Tremors A Cold Day In Hell 2018 H264.ita.eng.sub.ita - MIRCrew\Tremors A Cold Day In Hell 2018 H264.ita.eng.sub.ita - MIRCrew.mkv
Format                                   : Matroska
Format version                           : Version 2
File size                                : 1.49 GiB
Duration                                 : 1h 37mn
Overall bit rate                         : 2 179 Kbps
Movie name                               : MIRCrew
Encoded date                             : UTC 2018-05-12 19:07:52
Writing application                      : Lavf54.63.100
Writing library                          : Lavf54.63.100

Video
ID                                       : 1
Format                                   : AVC
Format/Info                              : Advanced Video Codec
Format profile                           : [email protected]
Format settings, CABAC                   : Yes
Format settings, ReFrames                : 2 frames
Codec ID                                 : V_MPEG4/ISO/AVC
Duration                                 : 1h 37mn
Bit rate                                 : 1 300 Kbps
Width                                    : 720 pixels
Height                                   : 404 pixels
Display aspect ratio                     : 16:9
Frame rate mode                          : Variable
Frame rate                               : 23.976 fps
Color space                              : YUV
Chroma subsampling                       : 4:2:0
Bit depth                                : 8 bits
Scan type                                : Progressive
Bits/(Pixel*Frame)                       : 0.186
Stream size                              : 869 MiB (57%)
Writing library                          : x264 core 130 r2273
Encoding settings                        : cabac=1 / ref=2 / deblock=1:0:0 / analyse=0x1:0x131 / me=hex / subme=7 / psy=1 / psy_rd=1.00:0.00 / mixed_ref=0 / me_range=16 / chroma_me=1 / trellis=1 / 8x8dct=0 / cqm=0 / deadzone=21,11 / fast_pskip=1 / chroma_qp_offset=-2 / threads=3 / lookahead_threads=1 / sliced_threads=0 / nr=0 / decimate=1 / interlaced=0 / bluray_compat=0 / constrained_intra=0 / bframes=3 / b_pyramid=0 / b_adapt=1 / b_bias=0 / direct=3 / weightb=1 / open_gop=0 / weightp=2 / keyint=230 / keyint_min=23 / scenecut=40 / intra_refresh=0 / rc_lookahead=40 / rc=abr / mbtree=1 / bitrate=1300 / ratetol=1.0 / qcomp=0.60 / qpmin=10 / qpmax=69 / qpstep=4 / vbv_maxrate=24000 / vbv_bufsize=24000 / nal_hrd=none / ip_ratio=1.40 / aq=1:1.00
Language                                 : Italian
Default                                  : Yes
Forced                                   : No
DURATION                                 : 01:37:58.540000000
NUMBER_OF_FRAMES                         : 140944
NUMBER_OF_BYTES                          : 9859418375
_STATISTICS_WRITING_APP                  : mkvmerge v9.5.0 ('Quiet Fire') 64bit
_STATISTICS_WRITING_DATE_UTC             : 2018-05-05 07:13:24
_STATISTICS_TAGS                         : BPS DURATION NUMBER_OF_FRAMES NUMBER_OF_BYTES

Audio #1
ID                                       : 2
Format                                   : AC-3
Format/Info                              : Audio Coding 3
Mode extension                           : CM (complete main)
Codec ID                                 : A_AC3
Duration                                 : 1h 37mn
Bit rate mode                            : Constant
Bit rate                                 : 448 Kbps
Channel(s)                               : 6 channels
Channel positions                        : Front: L C R, Side: L R, LFE
Sampling rate                            : 48.0 KHz
Bit depth                                : 16 bits
Compression mode                         : Lossy
Delay relative to video                  : 1mn 5s
Stream size                              : 314 MiB (21%)
Title                                    : AC3 ITA
Language                                 : Italian
Default                                  : No
Forced                                   : No
DURATION                                 : 01:37:58.560000000
NUMBER_OF_FRAMES                         : 183705
NUMBER_OF_BYTES                          : 470284800
_STATISTICS_WRITING_APP                  : mkvmerge v9.5.0 ('Quiet Fire') 64bit
_STATISTICS_WRITING_DATE_UTC             : 2018-05-05 07:13:24
_STATISTICS_TAGS                         : BPS DURATION NUMBER_OF_FRAMES NUMBER_OF_BYTES

Audio #2
ID                                       : 3
Format                                   : AC-3
Format/Info                              : Audio Coding 3
Mode extension                           : CM (complete main)
Codec ID                                 : A_AC3
Duration                                 : 1h 37mn
Bit rate mode                            : Constant
Bit rate                                 : 448 Kbps
Channel(s)                               : 6 channels
Channel positions                        : Front: L C R, Side: L R, LFE
Sampling rate                            : 48.0 KHz
Bit depth                                : 16 bits
Compression mode                         : Lossy
Delay relative to video                  : 1mn 5s
Stream size                              : 314 MiB (21%)
Title                                    : AC3 ENG
Language                                 : English
Default                                  : No
Forced                                   : No
DURATION                                 : 01:37:58.560000000
NUMBER_OF_FRAMES                         : 183705
NUMBER_OF_BYTES                          : 470284800
_STATISTICS_WRITING_APP                  : mkvmerge v9.5.0 ('Quiet Fire') 64bit
_STATISTICS_WRITING_DATE_UTC             : 2018-05-05 07:13:24
_STATISTICS_TAGS                         : BPS DURATION NUMBER_OF_FRAMES NUMBER_OF_BYTES

Menu
00:00:00.000                             : :Chapter 1
00:04:18.383                             : :Chapter 2
00:10:18.243                             : :Chapter 3
00:14:55.269                             : :Chapter 4
00:19:17.907                             : :Chapter 5
00:24:28.801                             : :Chapter 6
00:31:32.474                             : :Chapter 7
00:37:49.559                             : :Chapter 8
00:40:04.193                             : :Chapter 9
00:47:55.748                             : :Chapter 10
00:51:02.017                             : :Chapter 11
00:56:11.326                             : :Chapter 12
01:02:27.494                             : :Chapter 13
01:06:31.571                             : :Chapter 14
01:11:22.195                             : :Chapter 15
01:17:28.769                             : :Chapter 16
01:22:39.705                             : :Chapter 17
01:26:15.212                             : :Chapter 18
01:28:33.975                             : :Chapter 19
01:33:30.688                             : :Chapter 20


[/spoiler]



Info: Per scaricare devi usare un client come uTorrent o Transmission
AnnounceURL
udp://tracker.coppersurfer.tk:6969/announce
Hash 0554df67c0570209c81552064483c46727ea8b4a
Peers seeds: 104 , leech: 48
Size 1.49 GB
Completato 616x
Aggiunto 14.05.18 - 15:05:24
Uploader   robbyrs
Votazione (Voti: 0)


Condividi questo bittorrent:


html/blog:


bbcode/forum:




Aggiungi Commento